Deep Purple - Last Concert In Japan (1977) {1990, Japan 1-st press}

Category: Music | Comment: 0

Download Now

Deep Purple - Last Concert In Japan (1977) {1990, Japan 1-st press}

Deep Purple - Last Concert In Japan (1977)
EAC Rip | FLAC (Img) + Cue + Log ~ 357 Mb | MP3 CBR320 ~ 132 Mb
Scans Included (JPG, 300 dpi) | RAR 5% Recovery
Hard Rock | Warner Music Japan Inc. #WPCP-4018

Last Concert in Japan is an album by Deep Purple released in March 1977 in Japan (and in 1978 in Europe). It was dedicated to Tommy Bolin. It records the last Japanese concert of the Mark IV-lineup with Tommy Bolin. This album was recorded on 15 December 1975 at the Tokyo Budokan and achieved a gold certification in Japan...

When Ritchie Blackmore left Deep Purple in early 1975, many fans figured that the band was over. But with the arrival of worthy replacement Tommy Bolin, the band was suddenly back in business with the oft-overlooked Come Taste the Band release. What the prior members of Deep Purple didn't know, however, is that their new guitarist had a serious drug problem, which hampered his playing by the time the group landed in Japan for a series of shows in December of 1975. With Bolin allegedly having no feeling in one of his arms on the night of a Purple gig at the Budokan, the show was to be taped for a future release. Upon hearing the results on Last Concert in Japan, it's obviously a sad attempt by the record label to squeeze every last drop of money from the fans. As evidenced by his playing on Come Taste (as well as his work with Billy Cobham and the James Gang), Bolin was an exceptionally skilled guitarist, which only makes his ragged playing on Last Concert even more glaring. That said, the rest of the band sounds respectable, especially on such tracks as "You Keep on Moving." But when Bolin takes center stage to perform "Wild Dogs" (a highlight from his great solo debut, Teaser), his inept playing is at its most evident. In subsequent interviews, Purple members even slagged off Last Concert in Japan. For a much better Bolin-era Deep Purple recording, be sure to check out the group's King Biscuit Flower Hour release.
~ Greg Prato, All Music

Track List:

01. Burn [0:07:05.42]
02. Love Child [0:04:45.18]
03. You Keep On Moving [0:06:14.70]
04. Wild Dogs [0:06:05.02]
05. Lady Luck [0:03:09.30]
06. Smoke On The Water [0:06:24.38]
07. Soldier Of Fortune [0:02:21.37]
08. Woman From Tokyo [0:04:02.15]
09. Highway Star [0:06:51.45]

Personnel:

Jon Lord - keyboards, Hammond organ, backing vocals
Ian Paice - drums, percussion
David Coverdale - lead vocals
Glenn Hughes - bass, vocals
Tommy Bolin - guitar, lead vocals on «Wild Dogs»

EAC Log


Exact Audio Copy V1.1 from 23. June 2015

EAC extraction logfile from 16. February 2016, 11:16

Deep Purple / Last Concert In Japan [WPCP-4018]

Used drive : HL-DT-STBD-RE BH10LS38 Adapter: 1 ID: 1

Read mode : Secure
Utilize accurate stream : Yes
Defeat audio cache : Yes
Make use of C2 pointers : No

Read offset correction : 667
Overread into Lead-In and Lead-Out : No
Fill up missing offset samples with silence : Yes
Delete leading and trailing silent blocks : No
Null samples used in CRC calculations : Yes
Used interface : Installed external ASPI interface

Used output format : User Defined Encoder
Selected bitrate : 128 kBit/s
Quality : High
Add ID3 tag : No
Command line compressor : C:\Program Files (x86)\Exact Audio Copy\wavpack-4.60.1\wavpack.exe
Additional command line options : -hm -w "Year=%year%" -w "Genre=%genre%" %source% %dest%

TOC of the extracted CD

Track | Start | Length | Start sector | End sector
-----------------------------
1 | 0:00.00 | 7:05.42 | 0 | 31916
2 | 7:05.42 | 4:45.18 | 31917 | 53309
3 | 11:50.60 | 6:14.70 | 53310 | 81429
4 | 18:05.55 | 6:05.02 | 81430 | 108806
5 | 24:10.57 | 3:09.30 | 108807 | 123011
6 | 27:20.12 | 6:24.38 | 123012 | 151849
7 | 33:44.50 | 2:21.37 | 151850 | 162461
8 | 36:06.12 | 4:02.15 | 162462 | 180626
9 | 40:08.27 | 6:51.45 | 180627 | 211496

Range status and errors

Selected range

Filename G:\Rips by Alder\Deep Purple - Last Concert In Japan [WPCP-4018].wav

Peak level 96.7 %
Extraction speed 2.0 X
Range quality 100.0 %
Test CRC 630F92E3
Copy CRC 630F92E3
Copy OK

No errors occurred


AccurateRip summary

Track 1 accurately ripped (confidence 3) [4D6BBA34] (AR v2)
Track 2 accurately ripped (confidence 3) [22C679A5] (AR v2)
Track 3 accurately ripped (confidence 3) [F00F7514] (AR v2)
Track 4 accurately ripped (confidence 3) [18337D99] (AR v2)
Track 5 accurately ripped (confidence 3) [38800AE5] (AR v2)
Track 6 accurately ripped (confidence 3) [29B0C691] (AR v2)
Track 7 accurately ripped (confidence 3) [319D6F1E] (AR v2)
Track 8 accurately ripped (confidence 3) [11E62188] (AR v2)
Track 9 accurately ripped (confidence 3) [C2A492B9] (AR v2)

All tracks accurately ripped

End of status report

-- CUETools DB Plugin V2.1.6

[CTDB TOCID: ykguTmL5oMbP0DcqQ6r_gEozvZU-] found
Submit result: ykguTmL5oMbP0DcqQ6r_gEozvZU- has been confirmed
Track | CTDB Status
1 | (13/13) Accurately ripped
2 | (13/13) Accurately ripped
3 | (13/13) Accurately ripped
4 | (13/13) Accurately ripped
5 | (13/13) Accurately ripped
6 | (13/13) Accurately ripped
7 | (13/13) Accurately ripped
8 | (13/13) Accurately ripped
9 | (13/13) Accurately ripped

==== Log checksum BE11D50458CF93EA54D804AFC4686F2D6228B376A6842384AEA5BBADCA5447A7 ====

DR Log


foobar2000 1.2.6 / Dynamic Range Meter 1.1.1
log date: 2016-02-19 14:10:40

----------------------------------------
Analyzed: Deep Purple / Last Concert In Japan [WPCP-4018]
----------------------------------------

DR Peak RMS Duration Track
----------------------------------------
DR9 -0.61 dB -11.57 dB 7:06 01-Burn
DR10 -0.64 dB -11.73 dB 4:45 02-Love Child
DR10 -0.46 dB -13.37 dB 6:15 03-You Keep On Moving
DR9 -0.50 dB -11.91 dB 6:05 04-Wild Dogs
DR9 -0.61 dB -10.76 dB 3:09 05-Lady Luck
DR10 -0.61 dB -12.10 dB 6:25 06-Smoke On The Water
DR12 -1.17 dB -17.47 dB 2:21 07-Soldier Of Fortune
DR10 -0.64 dB -14.97 dB 4:02 08-Woman From Tokyo
DR9 -0.29 dB -12.32 dB 6:52 09-Highway Star
----------------------------------------

Number of tracks: 9
Official DR value: DR10

Samplerate: 44100 Hz
Channels: 2
Bits per sample: 16
Bitrate: 957 kbps
Codec: FLAC
================================================================================

CUETools Log


[CUETools log; Date: 19.02.2016 14:10:35; Version: 2.1.5]
[CTDB TOCID: ykguTmL5oMbP0DcqQ6r_gEozvZU-] found.
Track | CTDB Status
1 | (14/14) Accurately ripped
2 | (14/14) Accurately ripped
3 | (14/14) Accurately ripped
4 | (14/14) Accurately ripped
5 | (14/14) Accurately ripped
6 | (14/14) Accurately ripped
7 | (14/14) Accurately ripped
8 | (14/14) Accurately ripped
9 | (14/14) Accurately ripped
[AccurateRip ID: 0010dc10-00791383-640b0309] found.
Track [ CRC | V2 ] Status
01 [865479f3|4d6bba34] (04+03/15) Accurately ripped
02 [c2d389ff|22c679a5] (04+03/15) Accurately ripped
03 [39cb3178|f00f7514] (04+03/15) Accurately ripped
04 [0883956f|18337d99] (04+03/15) Accurately ripped
05 [d4232c31|38800ae5] (04+03/15) Accurately ripped
06 [f48e0bd4|29b0c691] (04+03/15) Accurately ripped
07 [6450e7d3|319d6f1e] (04+03/15) Accurately ripped
08 [5bfe078f|11e62188] (04+03/15) Accurately ripped
09 [0d91df84|c2a492b9] (04+03/15) Accurately ripped
Offsetted by 697:
01 [c33e6a2e] (03/15) Accurately ripped
02 [46bca566] (03/15) Accurately ripped
03 4e8fa0d (03/15) Accurately ripped
04 [5f9ed7fc] (03/15) Accurately ripped
05 [6c3e4582] (03/15) Accurately ripped
06 2975cd9 (03/15) Accurately ripped
07 [d696b3a6] (03/15) Accurately ripped
08 [0a2127e0] (03/15) Accurately ripped
09 [f744fd64] (03/15) Accurately ripped
Offsetted by 1373:
01 [7d096e5a] (03/15) Accurately ripped
02 [38885342] (03/15) Accurately ripped
03 [cdec8521] (03/15) Accurately ripped
04 [dcdf1cf0] (03/15) Accurately ripped
05 [a8b80c86] (03/15) Accurately ripped
06 [9036e2c5] (03/15) Accurately ripped
07 [6760c688] (03/15) Accurately ripped
08 4935fa7 (03/15) Accurately ripped
09 [269970ef] (03/15) Accurately ripped
Offsetted by 180:
01 [a114614f] (00/15) No match (V2 was not tested)
02 [5e18ebcb] (00/15) No match (V2 was not tested)
03 [cbd0ae5c] (00/15) No match (V2 was not tested)
04 [9cfd37b3] (00/15) No match (V2 was not tested)
05 [0a1c36c5] (00/15) No match (V2 was not tested)
06 [2744e68c] (00/15) No match (V2 was not tested)
07 [45bd3644] (00/15) No match (V2 was not tested)
08 [8b97b8c8] (00/15) No match (V2 was not tested)
09 [428e66aa] (00/15) No match (V2 was not tested)

Track Peak [ CRC32 ] [W/O NULL] [ LOG ]
- 96,7 [630F92E3] [62F5022B] CRC32
01 93,2 [6974D4F6] [9C1B7677]
02 92,8 [3460418A] [6E8BA259]
03 94,8 [E3C6CABC] [9BFE4521]
04 94,4 C4E20B1 EB3DB0B
05 93,2 [FA594498] [E13899A9]
06 93,2 C18B1A2 [67185163]
07 87,4 [DB1BEFE8] [28F43A24]
08 92,8 [1D1B18FF] [7313964F]
09 96,7 [95A78F85] [310D4BA1]
Download link:

Buy Premium To Support Me & Get Resumable Support & Max Speed:



Links are Interchangeable - No Password - Single Extraction
Direct Download

Tags: Purple, Concert

Deep Purple - Last Concert In Japan (1977) {1990, Japan 1-st press} Fast Download via Rapidshare Hotfile Fileserve Filesonic Megaupload, Deep Purple - Last Concert In Japan (1977) {1990, Japan 1-st press} Torrents and Emule Download or anything related.
Dear visitor, you went to website as unregistered user.
We encourage you to Register or Login to website under your name.

Add comments

Name:*
E-Mail:*
Comments:
Enter Code: *