Androcell - 3 Studio Albums (2004-2010) (Repost)

Category: Music | Comment: 0

Download Now

Androcell - 3 Studio Albums (2004-2010) (Repost)

Androcell - 3 Studio Albums (2004-2010)
EAC Rip | FLAC (image+.cue+log) - 1,45 GB | MP3 CBR 320 kbps (LAME 3.93) - 490 MB | Covers - 270 MB
Genre: Dub, Downtempo, Ambient | RAR 3% Rec. | Label: Celestial Dragon Records

Androcell is the enveloping, electronic dub infused music project of producer and artist, Tyler Smith. For almost two decades he has been at the controls of music production, experimenting with different styles and emotions in sonic art form. Over the last ten years under the Androcell name, Tyler has been steadily growing in awareness across the planet for his organic meets electronic musical expressions of bass drenched, effects heavy sound manipulations. Having a deep passion for blending a multitude of music styles, instruments, and cultures, he continues with his studio-as-instrument approach in creating emotional and immersive sound productions...

Tracklist:
01. Purple Aura
02. Dub Crystals
03. Soul in the Machine
04. Molecular Sunrise
05. Plant Life
06. Hash Bazaar
07. Rapture of the Deep
08. Hindu Kush
09. Fungus Garden

Total time: 01:13:55

EAC log


Exact Audio Copy V0.99 prebeta 5 from 4. May 2009

EAC extraction logfile from 12. January 2011, 22:43

Androcell / Emotivision

Used drive : Optiarc DVD RW AD-7200S Adapter: 1 ID: 0

Read mode : Secure
Utilize accurate stream : Yes
Defeat audio cache : Yes
Make use of C2 pointers : No

Read offset correction : 48
Overread into Lead-In and Lead-Out : No
Fill up missing offset samples with silence : Yes
Delete leading and trailing silent blocks : No
Null samples used in CRC calculations : Yes
Used interface : Native Win32 interface for Win NT & 2000

Used output format : User Defined Encoder
Selected bitrate : 1024 kBit/s
Quality : High
Add ID3 tag : No
Command line compressor : C:\Program Files\Exact Audio Copy\FLAC\FLAC.EXE
Additional command line options : -T "DATE=%y" -T "GENRE=%m" -8 -V %s

TOC of the extracted CD

Track | Start | Length | Start sector | End sector
-----------------------------
1 | 0:00.00 | 7:13.53 | 0 | 32527
2 | 7:13.53 | 7:18.22 | 32528 | 65399
3 | 14:32.00 | 8:07.36 | 65400 | 101960
4 | 22:39.36 | 8:51.07 | 101961 | 141792
5 | 31:30.43 | 7:41.37 | 141793 | 176404
6 | 39:12.05 | 7:48.01 | 176405 | 211505
7 | 47:00.06 | 7:14.56 | 211506 | 244111
8 | 54:14.62 | 9:12.47 | 244112 | 285558
9 | 63:27.34 | 10:27.19 | 285559 | 332602

Range status and errors

Selected range

Filename D:\Androcell - Emotivision.wav

Peak level 99.7 %
Range quality 99.9 %
Test CRC DF39C293
Copy CRC DF39C293
Copy OK

No errors occurred


AccurateRip summary

Track 1 accurately ripped (confidence 10) [ABFCEDAA]
Track 2 accurately ripped (confidence 10) [399A1603]
Track 3 accurately ripped (confidence 10) [47F95B5C]
Track 4 accurately ripped (confidence 10) [9236C366]
Track 5 accurately ripped (confidence 10) [139A3327]
Track 6 accurately ripped (confidence 10) [0616D626]
Track 7 accurately ripped (confidence 10) [2AA3D853]
Track 8 accurately ripped (confidence 10) [A6BC9916]
Track 9 accurately ripped (confidence 10) [68662C72]

All tracks accurately ripped

End of status report

CUETools log


[CUETools log; Date: 19.02.2016 13:06:37; Version: 2.1.4]
[CTDB TOCID: J3Ch_aJ6IFFYyBHDN_t0nvE1GS0-] found.
Track | CTDB Status
1 | (4/4) Accurately ripped
2 | (4/4) Accurately ripped
3 | (4/4) Accurately ripped
4 | (4/4) Accurately ripped
5 | (4/4) Accurately ripped
6 | (4/4) Accurately ripped
7 | (4/4) Accurately ripped
8 | (4/4) Accurately ripped
9 | (3/4) Accurately ripped
[AccurateRip ID: 00184a3b-00b388eb-80115209] found.
Track [ CRC | V2 ] Status
01 [abfcedaa|f6770121] (12+00/12) Accurately ripped
02 [399a1603|c7982a9e] (12+00/12) Accurately ripped
03 [47f95b5c|52e5e78f] (12+00/12) Accurately ripped
04 [9236c366|f1cfc347] (12+00/12) Accurately ripped
05 [139a3327|88082dd4] (12+00/12) Accurately ripped
06 [0616d626|c0f2fb2d] (12+00/12) Accurately ripped
07 [2aa3d853|0ff931e8] (12+00/12) Accurately ripped
08 [a6bc9916|74313dd6] (12+00/12) Accurately ripped
09 [68662c72|28607f8c] (12+00/12) Accurately ripped

Track Peak [ CRC32 ] [W/O NULL] [ LOG ]
- 99,7 [DF39C293] [770345A8] CRC32
01 98,9 [6A38DF78] [5627BE2D]
02 99,7 [DC5F7C3F] 847B901
03 98,9 [D536F279] [0FC7129B]
04 98,9 [9EC3BA3E] [761FB0F5]
05 98,9 [71AE608C] 2C0A487
06 98,9 [1FB088D0] [86404B6D]
07 98,8 [82AB4C4C] [5B93D3EC]
08 99,7 [CCCD8471] [40D8508F]
09 98,8 [203B8E7F] [FDE13FAC]



Tracklist:
01. Process of Unfolding
02. Neurosomatic Circuit
03. Atmos-Spheres
04. Spectral Processor
05. Aes Dana - Natti Natti (Androcell Remix)
06. Efflorescence
07. Gnome Dosed
08. Dub Crickets

Total time: 01:02:36

EAC log


Exact Audio Copy V0.99 prebeta 5 from 4. May 2009

EAC extraction logfile from 17. January 2011, 14:11

Androcell / Efflorescence

Used drive : TEAC CD-552G Adapter: 1 ID: 0

Read mode : Secure
Utilize accurate stream : Yes
Defeat audio cache : Yes
Make use of C2 pointers : No

Read offset correction : 12
Overread into Lead-In and Lead-Out : No
Fill up missing offset samples with silence : Yes
Delete leading and trailing silent blocks : No
Null samples used in CRC calculations : Yes
Used interface : Native Win32 interface for Win NT & 2000

Used output format : User Defined Encoder
Selected bitrate : 1024 kBit/s
Quality : High
Add ID3 tag : No
Command line compressor : C:\Program Files\Exact Audio Copy\Flac\flac.exe
Additional command line options : -T "DATE=%y" -T "GENRE=%m" -8 -V %s

TOC of the extracted CD

Track | Start | Length | Start sector | End sector
-----------------------------
1 | 0:00.00 | 9:10.58 | 0 | 41307
2 | 9:10.58 | 7:39.08 | 41308 | 75740
3 | 16:49.66 | 7:58.38 | 75741 | 111628
4 | 24:48.29 | 7:37.50 | 111629 | 145953
5 | 32:26.04 | 6:54.36 | 145954 | 177039
6 | 39:20.40 | 8:51.55 | 177040 | 216919
7 | 48:12.20 | 7:21.10 | 216920 | 250004
8 | 55:33.30 | 7:02.45 | 250005 | 281699

Range status and errors

Selected range

Filename D:\Androcell - Efflorescence.wav

Peak level 99.0 %
Range quality 99.9 %
Test CRC 6F66E16C
Copy CRC 6F66E16C
Copy OK

No errors occurred


AccurateRip summary

Track 1 accurately ripped (confidence 4) [791F4DE8]
Track 2 accurately ripped (confidence 5) [054F9678]
Track 3 accurately ripped (confidence 5) [AD6761F6]
Track 4 accurately ripped (confidence 5) [4DF62C00]
Track 5 accurately ripped (confidence 5) [64877808]
Track 6 accurately ripped (confidence 5) FFDE91E
Track 7 accurately ripped (confidence 5) [55406983]
Track 8 accurately ripped (confidence 5) [640F27E6]

All tracks accurately ripped

End of status report

CUETools log


[CUETools log; Date: 19.02.2016 13:07:21; Version: 2.1.4]
[CTDB TOCID: .bKxyrAAFpvhQ02QuymJV5JlzlQ-] found.
Track | CTDB Status
1 | (9/9) Accurately ripped
2 | (9/9) Accurately ripped
3 | (9/9) Accurately ripped
4 | (9/9) Accurately ripped
5 | (9/9) Accurately ripped
6 | (9/9) Accurately ripped
7 | (9/9) Accurately ripped
8 | (9/9) Accurately ripped
[AccurateRip ID: 0013d749-00834222-670eac08] found.
Track [ CRC | V2 ] Status
01 [791f4de8|058a6085] (04+07/19) Accurately ripped
02 [054f9678|04e4bdd4] (05+06/19) Accurately ripped
03 [ad6761f6|b43aee19] (05+06/19) Accurately ripped
04 [4df62c00|2e1e973c] (05+06/19) Accurately ripped
05 [64877808|66460d12] (05+06/19) Accurately ripped
06 ffde91e|82547692 (05+06/19) Accurately ripped
07 [55406983|6b6d9c29] (05+06/19) Accurately ripped
08 [640f27e6|de7591dc] (05+06/18) Accurately ripped
Offsetted by 664:
01 [48def4a2] (08/19) Accurately ripped
02 [a73d132c] (08/19) Accurately ripped
03 [eb3a4939] (08/19) Accurately ripped
04 [3b25ec9a] (08/19) Accurately ripped
05 [68c45e4e] (08/19) Accurately ripped
06 [655fb8f8] (08/19) Accurately ripped
07 [93bb39de] (08/19) Accurately ripped
08 [37843878] (07/18) Accurately ripped

Track Peak [ CRC32 ] [W/O NULL] [ LOG ]
- 99,0 [6F66E16C] [24F6149A] CRC32
01 99,0 [8A149FE9] [E02D02D6]
02 96,6 [C13DDC6C] [3B7EEF0E]
03 96,6 [F6ABCFBA] [40ABE2B8]
04 96,6 [D69F846D] [65789B95]
05 96,6 [0D40D195] [70E76A04]
06 96,6 [3D3AA582] [945AEBFB]
07 96,6 [414A5092] [456DF65F]
08 96,6 [A5B13BC5] [13EB86C9]


Tracklist:
01. Endless Wonder
02. Mysterious Union
03. Desert Nomad
04. Ganja Baba
05. Night Sorceress
06. Synchromystic
07. Higher Circuit Experience
08. Full Sail
09. Dub Gardens

Total time: 01:11:57

EAC log


Exact Audio Copy V0.99 prebeta 5 from 4. May 2009

EAC extraction logfile from 15. January 2011, 15:31

Androcell / Entheomythic

Used drive : Optiarc DVD RW AD-7200S Adapter: 1 ID: 0

Read mode : Secure
Utilize accurate stream : Yes
Defeat audio cache : Yes
Make use of C2 pointers : No

Read offset correction : 48
Overread into Lead-In and Lead-Out : No
Fill up missing offset samples with silence : Yes
Delete leading and trailing silent blocks : No
Null samples used in CRC calculations : Yes
Used interface : Native Win32 interface for Win NT & 2000

Used output format : User Defined Encoder
Selected bitrate : 1024 kBit/s
Quality : High
Add ID3 tag : No
Command line compressor : C:\Program Files\Exact Audio Copy\FLAC\FLAC.EXE
Additional command line options : -T "DATE=%y" -T "GENRE=%m" -8 -V %s

TOC of the extracted CD

Track | Start | Length | Start sector | End sector
-----------------------------
1 | 0:00.00 | 6:46.68 | 0 | 30517
2 | 6:46.68 | 7:36.30 | 30518 | 64747
3 | 14:23.23 | 8:20.55 | 64748 | 102302
4 | 22:44.03 | 8:12.29 | 102303 | 139231
5 | 30:56.32 | 9:14.35 | 139232 | 180816
6 | 40:10.67 | 7:36.40 | 180817 | 215056
7 | 47:47.32 | 7:31.26 | 215057 | 248907
8 | 55:18.58 | 7:25.15 | 248908 | 282297
9 | 62:43.73 | 9:12.62 | 282298 | 323759

Range status and errors

Selected range

Filename D:\Androcell - Entheomythic.wav

Peak level 98.4 %
Range quality 100.0 %
Test CRC 3B7577F3
Copy CRC 3B7577F3
Copy OK

No errors occurred


AccurateRip summary

Track 1 accurately ripped (confidence 2) [4C3D549A]
Track 2 accurately ripped (confidence 2) [F4F2F7AA]
Track 3 accurately ripped (confidence 2) [9726FC2A]
Track 4 accurately ripped (confidence 2) [A0D3B977]
Track 5 accurately ripped (confidence 2) [5360AC67]
Track 6 accurately ripped (confidence 2) [5999C6AB]
Track 7 accurately ripped (confidence 2) [9CAF5B24]
Track 8 accurately ripped (confidence 2) [C9259F5D]
Track 9 accurately ripped (confidence 2) [CAB5CD98]

All tracks accurately ripped

End of status report

CUETools log


[CUETools log; Date: 19.02.2016 13:08:12; Version: 2.1.4]
[CTDB TOCID: 4z5sezlCjzETPMIOmwz3nN_M678-] found.
Track | CTDB Status
1 | (6/6) Accurately ripped
2 | (6/6) Accurately ripped
3 | (6/6) Accurately ripped
4 | (6/6) Accurately ripped
5 | (6/6) Accurately ripped
6 | (6/6) Accurately ripped
7 | (6/6) Accurately ripped
8 | (6/6) Accurately ripped
9 | (6/6) Accurately ripped
[AccurateRip ID: 001839b9-00b2d734-8610dc09] found.
Track [ CRC | V2 ] Status
01 [4c3d549a|10196fd0] (02+06/10) Accurately ripped
02 [f4f2f7aa|31feb9e8] (02+06/10) Accurately ripped
03 [9726fc2a|f8f6ac6e] (02+06/10) Accurately ripped
04 [a0d3b977|b360aedf] (02+06/10) Accurately ripped
05 [5360ac67|e4e34366] (02+05/09) Accurately ripped
06 [5999c6ab|d830e4ab] (02+05/09) Accurately ripped
07 [9caf5b24|eab19e1b] (02+05/09) Accurately ripped
08 [c9259f5d|dec8af90] (02+05/09) Accurately ripped
09 [cab5cd98|cdbe0904] (02+05/09) Accurately ripped
Offsetted by -6:
01 [e3d53f98] (00/10) No match (V2 was not tested)
02 [0b59cab9] (00/10) No match (V2 was not tested)
03 [fca2d302] (00/10) No match (V2 was not tested)
04 [53aa1ab8] (00/10) No match (V2 was not tested)
05 [2958c056] (00/09) No match (V2 was not tested)
06 [7bfb5eda] (00/09) No match (V2 was not tested)
07 [48ba180b] (00/09) No match (V2 was not tested)
08 [9ed7cfaf] (00/09) No match (V2 was not tested)
09 [5267a8bb] (00/09) No match (V2 was not tested)

Track Peak [ CRC32 ] [W/O NULL] [ LOG ]
- 98,4 [3B7577F3] [07ACFE53] CRC32
01 98,4 [18F80F5E] [E783E002]
02 98,4 [6F494411] [292E6213]
03 98,4 3BCA44E [876682DF]
04 98,4 [6962F175] [DA41CC87]
05 98,4 [C2809709] [F7DD7D52]
06 98,4 [1B40F748] [F4581832]
07 98,4 [F8C44E40] [E4662454]
08 98,4 [31B32FB8] [E59FF39F]
09 98,4 [3A9FD55D] [5562E2F4]
Download link:

Buy Premium To Support Me & Get Resumable Support & Max Speed:



Links are Interchangeable - No Password - Single Extraction
Direct Download

Tags: Androcell, Studio, Albums, Repost

Androcell - 3 Studio Albums (2004-2010) (Repost) Fast Download via Rapidshare Hotfile Fileserve Filesonic Megaupload, Androcell - 3 Studio Albums (2004-2010) (Repost) Torrents and Emule Download or anything related.
Dear visitor, you went to website as unregistered user.
We encourage you to Register or Login to website under your name.

Add comments

Name:*
E-Mail:*
Comments:
Enter Code: *